Доктор Стрэндж

Лицензия

Добыча

Дубляж

Уэнсдэй

1 сезон

Тор

Дубляж

В эфире

Дубляж

Там, где раки поют

MVO

Властелин колец

1 сезон

Deluxe

pack

Рекомендуем

30

Пиратка

ВАЖНО

ВАЖНО

Ghostwire

Пиратка

jed

RePack

nioh2

RePack

RDR2

RePack

NEED FOR SPEED™ PAYBACK

RePack

скачать торрент

Кинопоиск HD

Острые козырьки 6 сезон

6 сезон

FAR CRY 6

RePack

скачать торрент

Лицензия

скачать торрент

MVO

1

1 сезон

скачать торрент

1 сезон

скачать торрент

Лицензия

  

Классная Катя / Сезон: 1 / Серии: 1-17 из 17 (Ольга Френкель, Тимофей Шалаев) [2022, Комедия, WEB-DLRip]

Классная Катя через торрент 2.piratbit.fun

Размер: 5.81 GB | Добавлен: 2 мес. назад | Торрент скачан:76 раз
Смотреть онлайн | Скачать   

06-09-2022 03:00 Классная Катя Скачать торрент  

Классная Катя
Год выпуска: 2022
Страна: Россия
Студия: Кинокомпания "Sony Pictures Television Russia", "ЛЕАН-М"
Жанр: Комедия
Продолжительность: ~ 00:25:00
Перевод: Не требуется
Субтитры: отсутствуют

Режиссер: Ольга Френкель, Тимофей Шалаев

rating

В ролях: Валерия Астапова, Гоша Куценко, Алёна Бабенко, Михаил Кремер, Антон Лаврентьев, Даня Милохин, Луиза-Габриэла Бровина, Маргарита Дьяченкова, Светлана Коновалова, Виктория Клинкова, Егор Заховаев, Вячеслав Щенин, Ярослав Ефременко, Глеб Степан Каллистов, Юлия Макарова, Максим Сушко, Андрей Морец

Описание: Безбашенная дочка мэра попадает в обыкновенную гимназию, где ради спасения карьеры отца становится учительницей географии. Ролики в соцсетях, вечеринки в клубах и театральные постановки вместо зубрёжки и глобуса раздражают завуча старой закалки Нору Спартаковну. Зато ученикам и симпатичному учителю музыки новая учительница и её методы обучения пришлись по вкусу.

Качество: WEB-DLRip
Формат: AVI

Видео: XviD, 720x400, ~ 1600 Кбит/с, 0.224 bit/pixel, 25 Кадр/с
Аудио: 48.0 kHz, AC3 Dolby Digital, 2/0 (L,R) ch, ~ 192 kbps
скриншот  скриншот  скриншот  

Общее
Полное имя : D:\Klassnaya.Katya.S01.WEB-DLRip.25Kuzmich\Klassnaya.Katya.s01.e01.WEB-DLRip.25Kuzmich.avi
Формат : AVI
Формат/Информация : Audio Video Interleave
Размер файла : 346 Мбайт
Продолжительность : 26 м. 39 с.
Общий поток : 1 814 Кбит/сек
Программа кодирования : VirtualDubMod 1.5.10.3 | www.virtualdub-fr.org || (build 2550/release)
Библиотека кодирования : VirtualDubMod build 2550/release

Видео
Идентификатор : 0
Формат : MPEG-4 Visual
Профиль формата : Advanced [email protected]
Настройки формата : BVOP1
Параметр BVOP формата : 1
Параметр QPel формата : Нет
Параметр GMC формата : Без точки перехода
Параметр матрицы формата : Default (MPEG)
Идентификатор кодека : XVID
Идентификатор кодека/Подсказка : XviD
Продолжительность : 26 м. 39 с.
Битрейт : 1 613 Кбит/сек
Ширина : 720 пикселей
Высота : 400 пикселей
Соотношение сторон : 16:9
Частота кадров : 25,000 кадров/сек
Цветовое пространство : YUV
Субдискретизация насыщенности : 4:2:0
Битовая глубина : 8 бит
Тип развёртки : Прогрессивная
Метод сжатия : С потерями
Бит/(Пиксели*Кадры) : 0.224
Размер потока : 307 Мбайт (89%)
Библиотека кодирования : XviD 73

Аудио
Идентификатор : 1
Формат : AC-3
Формат/Информация : Audio Coding 3
Коммерческое название : Dolby Digital
Идентификатор кодека : 2000
Продолжительность : 26 м. 39 с.
Вид битрейта : Постоянный
Битрейт : 192 Кбит/сек
Каналы : 2 канала
Channel layout : L R
Частота : 48,0 КГц
Частота кадров : 31,250 кадров/сек (1536 SPF)
Метод сжатия : С потерями
Размер потока : 36,6 Мбайт (11%)
Выравнивание : Разделение по промежуткам
Продолжительность промежутка : 40 мс. (1,00 видеокадр)
Время предзагрузки промежутка : 500 мс.
Service kind : Complete Main

Внимание! Раздача ведётся путём добавления новых серий; при каждом добавлении создаётся новый торрент.
Чтобы начать докачку новой серии, пользователям необходимо сделать следующее:
1. Остановить скачивание;
2. Удалить старый торрент у себя из клиента (старые серии удалять не надо);
3. Скачать новый торрент и запустить его у себя в клиенте вместо старого, при этом указать клиенту путь в старую папку куда и должно происходить скачивание новых серий. Ваш клиент при этом должен произвести хеширование (проверку) старой папки и будет докачивать только те серии, которых у вас ещё нет. Старые серии при этом не удаляются, а продолжают раздаваться! Eсли вы уже удалили старые серии, то предотвратить повторную закачку старых серий можно, отжав галочку в соответствующих местах при запуске нового торрента.



Скачать Классная Катя через торрент http://i120.fastpic.org/big/2022/0905/3f/aed7d7187dc4345a6f35379a24e3c93f.jpg Скачать, смотреть онлайн Классная Катя бесплантно в хорошем качестве Описание: Безбашенная дочка мэра попадает в обыкновенную гимназию, где ради спасения карьеры отца становится учительницей географии. Ролики ... 7.3 10 15
Торрент: Зарегистрирован [2022-10-03 10:05] · скачан: 76 раз
Статус: √ проверено
Размер: 5.81 GB
Как cкачать? Как скачать Классная Катя через торрент | UTorrent

% Раздел Тема Автор DL S | L
Наши сериалы [ 12.51 GB ] Классная Катя / Сезон: 1 / Серии: 1-17 из 17 | | 1080p bober100 Скачать
7 | 0
Наши сериалы [ 5.42 GB ] Классная Катя / Сезон: 1 / Серии: 1-17 из 17 | | DLRip-AVC bober100 Скачать
3 | 0



Последний раз редактировалось: bober100 (2022-10-03 10:04), всего редактировалось 1 раз

28-11-2019 20:33  


Отключить вcю реклaмy на сайте, в т.ч. и в плеере онлайн просмотра!

30-09-2022 17:03 Классная Катя Скачать торрент  

так себе... и катя стрёмная



    Дорогой пользователь! Огромная просьба, поблагодарите релизера, оцените раздачу и оставьте свои комментарий, если Вы скачали Классная Катя через торрент бесплатно!!
    Комментировать посты могут только пользователи прошедшие не сложную регистрацию
    Показать сообщения:    


    Классная Катя через торрент
    Скачать бесплатно Классная Катя
    Классная Катя скачать торрент
    Классная Катя смотреть онлайн
    Cкачать фильм Классная Катя бесплатно
    Классная Катя скачать торрент в хорошем качестве
    Классная Катя смотреть онлайн бесплатно в хорошем качестве
    Вы не можете начинать темы
    Вы не можете отвечать на сообщения
    Вы не можете редактировать свои сообщения
    Вы не можете удалять свои сообщения
    Вы не можете голосовать в опросах
    Вы не можете прикреплять файлы к сообщениям
    Вы можете скачивать файлы
    Классная Катя / Сезон: 1 / Серии: 1-17 из 17 [2022, Комедия, WEB-DLRip] смотреть онлайн, скачать торрент picoco.icu